免費論壇 繁體 | 簡體
Sclub交友聊天~加入聊天室當版主
分享
返回列表 發帖

[百度][半妖乳娘.The Demon Wet Nurse.1992][1080p/MP4/WEB-DL/2.03G]

半妖乳娘
The Demon Wet Nurse
中国香港 95分钟 1992年3月13日
《半妖乳娘》是夏祖辉执导,金贞娥、张京花、单立文、曹查理、胡锦等主演的剧情片。讲述在明神宗万历年间,河北定兴县意娘嫁夫侯

二,育下一子,侯二长年患病,家贫如洗,响粮不继,适值朝廷诏告为皇太孙征召乳娘,意娘为求生计,毅然前往应选,途中遇上妄巧小

人李三,在花言巧语下,意娘不克自持,终及于乱。
(Ban yao ru niang) Cantonese Audio,English subs
DUB:Cantonese
SUBS:English
----------------
God Ming wanli, hebei dingxing niang husbands, hou two, a son, hou ErChang years ill, as poor as a church mouse, ring of

grain is not following, that court openly declared for the recruitment of a grandson to the emperor as says father du

breul, niang for their livelihoods, resolutely to the persons to be elected, they encountered error artful little lee

three, under the rhetoric, niang means self sustaining, and eventually to chaos.In the palace specially handpicked the

girl's mother cao ersao is a hermaphroditic person, by the idea niang beauty attraction, everywhere maintains, frequently

vigorously recommends in the empress dowager, will tease the baby's wonderful skill to teach the idea niang, causes the

idea niang to quickly arrange the public, formally serves as the emperor taisun lacunae, lives in the palace.She and cao

er were in love.
------------------








---------------------------------------------------
General
Complete name                  : D:\[半妖乳娘].Demon Wet Nurse.(1992).1080p.web-dl.mp4
Format                         : MPEG-4
Format profile                 : Base Media / Version 2
Codec ID                       : mp42 (isom/iso2/avc1/mp41)
File size                      : 2.04 GiB
Duration                       : 1 h 40 min
Overall bit rate mode          : Variable
Overall bit rate               : 2 910 kb/s
Encoded date                   : UTC 2018-11-03 03:25:34
Tagged date                    : UTC 2018-11-03 03:25:34
Writing application            : HandBrake 1.1.2 2018090500

Video
ID                             : 1
Format                         : AVC
Format/Info                    : Advanced Video Codec
Format profile                 : Main@L4
Format settings                : CABAC / 4 Ref Frames
Format settings, CABAC         : Yes
Format settings, ReFrames      : 4 frames
Codec ID                       : avc1
Codec ID/Info                  : Advanced Video Coding
Duration                       : 1 h 40 min
Bit rate                       : 2 743 kb/s
Width                          : 1 920 pixels
Height                         : 800 pixels
Display aspect ratio           : 2.40:1
Frame rate mode                : Constant
Frame rate                     : 29.970 (30000/1001) FPS
Color space                    : YUV
Chroma subsampling             : 4:2:0
Bit depth                      : 8 bits
Scan type                      : Progressive
Bits/(Pixel*Frame)             : 0.060
Stream size                    : 1.92 GiB (94%)
Writing library                : x264 core 155 r2901 7d0ff22
Encoding settings              : cabac=1 / ref=1 / deblock=1:0:0 / analyse=0x1:0x111 / me=hex / subme=2 / psy=1 /

psy_rd=1.00:0.00 / mixed_ref=0 / me_range=16 / chroma_me=1 / trellis=0 / 8x8dct=0 / cqm=0 / deadzone=21,11 / fast_pskip=1

/ chroma_qp_offset=0 / threads=9 / lookahead_threads=3 / sliced_threads=0 / nr=0 / decimate=1 / interlaced=0 /

bluray_compat=0 / constrained_intra=0 / bframes=3 / b_pyramid=2 / b_adapt=1 / b_bias=0 / direct=1 / weightb=1 /

open_gop=0 / weightp=1 / keyint=300 / keyint_min=30 / scenecut=40 / intra_refresh=0 / rc_lookahead=10 / rc=crf / mbtree=1

/ crf=24.0 / qcomp=0.60 / qpmin=0 / qpmax=69 / qpstep=4 / vbv_maxrate=20000 / vbv_bufsize=25000 / crf_max=0.0 /

nal_hrd=none / filler=0 / ip_ratio=1.40 / aq=1:1.00
Encoded date                   : UTC 2018-11-03 03:25:34
Tagged date                    : UTC 2018-11-03 03:25:34
Color range                    : Limited
Color primaries                : BT.709
Transfer characteristics       : BT.709
Matrix coefficients            : BT.709

Audio
ID                             : 2
Format                         : AAC
Format/Info                    : Advanced Audio Codec
Format profile                 : LC
Codec ID                       : mp4a-40-2
Duration                       : 1 h 40 min
Bit rate mode                  : Variable
Bit rate                       : 160 kb/s
Channel(s)                     : 2 channels
Channel positions              : Front: L R
Sampling rate                  : 48.0 kHz
Frame rate                     : 46.875 FPS (1024 SPF)
Compression mode               : Lossy
Stream size                    : 115 MiB (6%)
Title                          : Stereo / Stereo
Language                       : Chinese
Default                        : Yes
Alternate group                : 1
Encoded date                   : UTC 2018-11-03 03:25:34
Tagged date                    : UTC 2018-11-03 03:25:34
購買主題 已購買人數:1  記錄 本主題需向作者支付 5 電影票 才能瀏覽

这版本的非常清晰,值得观看.

TOP

看画质好像跟LD版差别不大

TOP

这版本以有,谢谢。

TOP

返回列表