免費論壇 繁體 | 簡體
Sclub交友聊天~加入聊天室當版主
分享
电影票购买请用支付宝:sjz416@163.com
返回列表 發帖

[百度][左魔传.The devil.2016][MP4/WEB-DL/1080p/756M]

左魔传 (2016)
导演: 张万里 / 谷斌
编剧: 董瑷珲
主演: 厉蔺菲 / 白莫菲 / 王欢 / 杨正东
类型: 剧情 / 奇幻 / 古装
制片国家/地区: 中国大陆
语言: 汉语普通话
上映日期: 2016-02-15(中国大陆)
片长: 65分钟
又名: 左魔传:五勇士
左魔传的剧情简介:
  《左魔传》讲述了一个发生在遥远未知的仙、魔、人、妖四界并立的时代的故事。少年勇士左木背负使命寻找魔王,并邂逅四位身怀绝技的小伙伴。众人最终踏上一场奇幻且阴谋重重的除魔之旅。
(Zuo mo zhuan) Chinese Audio
DUB:Mandarin
SUBS:Chinese Subs;
---------------------------
The legend of the left demon tells the story of a time when the four realms of immortals, demons, humans and demons, all of which are far away and unknown, coexist.Young warrior left wood carrying the mission to find the devil, and encounter four people with skills.They end up on a magical and conspiracy-heavy journey.
===============








-------------------------
General
Complete name                  : G:\[左魔传].The devil.2016.1080p.web-dl.mp4
Format                         : MPEG-4
Format profile                 : Base Media
Codec ID                       : isom (isom/iso2/avc1/mp41)
File size                      : 756 MiB
Duration                       : 1 h 5 min
Overall bit rate               : 1 618 kb/s
Writing application            : Lavf57.48.101

Video
ID                             : 1
Format                         : AVC
Format/Info                    : Advanced Video Codec
Format profile                 : High@L4
Format settings                : CABAC / 4 Ref Frames
Format settings, CABAC         : Yes
Format settings, ReFrames      : 4 frames
Codec ID                       : avc1
Codec ID/Info                  : Advanced Video Coding
Duration                       : 1 h 5 min
Bit rate                       : 1 487 kb/s
Width                          : 1 920 pixels
Height                         : 810 pixels
Display aspect ratio           : 2.40:1
Frame rate mode                : Variable
Frame rate                     : 24.754 FPS
Minimum frame rate             : 0.172 FPS
Maximum frame rate             : 25.000 FPS
Color space                    : YUV
Chroma subsampling             : 4:2:0
Bit depth                      : 8 bits
Scan type                      : Progressive
Bits/(Pixel*Frame)             : 0.039
Stream size                    : 695 MiB (92%)
Color range                    : Limited
Color primaries                : BT.709
Transfer characteristics       : BT.709
Matrix coefficients            : BT.709
Codec configuration box        : avcC

Audio
ID                             : 2
Format                         : AAC LC
Format/Info                    : Advanced Audio Codec Low Complexity
Codec ID                       : mp4a-40-2
Duration                       : 1 h 5 min
Bit rate mode                  : Constant
Bit rate                       : 124 kb/s
Channel(s)                     : 2 channels
Channel layout                 : L R
Sampling rate                  : 44.1 kHz
Frame rate                     : 43.066 FPS (1024 SPF)
Compression mode               : Lossy
Stream size                    : 58.1 MiB (8%)
Default                        : Yes
Alternate group                : 1
[下載地址]:
購買主題 已購買人數:0  記錄 本主題需向作者支付 6 金钻 才能瀏覽

返回列表