免費論壇 繁體 | 簡體
Sclub交友聊天~加入聊天室當版主
分享
电影票购买请用支付宝:sjz416@163.com
返回列表 發帖

[百度][夜幕下的黄色幽灵.Porn Freak.1989][MP4/WEB-DL/1080p/1.05G]


夜幕下的黄色幽灵 (1989)
导演: 达式彪
编剧: 赵志强 / 胡惠英
主演: 沈敏 / 夏军 / 吴竞
制片国家/地区: 中国大陆
语言: 汉语普通话
上映日期: 1989
又名: Porn Freak
夜幕下的黄色幽灵的剧情简介:
  1980年代未期,为彻底铲除制黄贩黄组织,公安局安排欧阳梅(沈敏 饰)打入贩黄集团内部。高中生达丽(段仕萍 饰)被潘建平(谭阳 饰)用淫秽录像拉下水,最终沦为其玩物。酒巴老板顾文彬(祁明远 饰)贪恋欧阳梅美色,三天两头施以恩惠,企图将其霸占,机智的欧阳梅巧妙地回绝了这个色狼。贩黄头目为拓展渠道,想利用达丽帮他完成罪恶目的。个体司机兰凌(夏军 饰)和潘建平为达丽争风吃醋,最终潘死于非命。达丽为挣得高额报酬,在兰凌的安排下,不惜出卖身体陪客户过夜,最终染病。为摸清黄货存放窝点,欧阳梅与侦察员化装成购货商前往贩黄头目指定的交易地点.....
(Ye mu xia de huang se you ling) Chinese Audio
DUB:Mandarin
SUBS:no
-------------------------
1980 time not period, make huang puhuang to eliminate to make to organize thoroughly, public security bureau arranges ou yang mei (shen min is acted the role of) infiltrate puhuang group interior.High school students (duan shiping act the role ofing) by pan jianping (tan Yang act the role ofing) with obscene video dragged into the water, eventually reduced to its playthings.Wine bar boss gu wenbin (qi mingyuan is acted the role of) covet ou yangmei beauty, 3 days two impose favour, the attempt occupies its by force, tactful ou yangmei rebuffed this sex maniac ably.Peddler leader is channel of development, want to use da li to help him accomplish evil purpose.Individual driver LAN ling (xia jun is acted the role of) he pan jianping is da li contend for jealously, final pan dies at the stake.
Dudley to earn a high reward, under the arrangement of lanling, at the expense of selling the body to spend the night with the customer, and eventually get sick.In order to find out the yellow goods storage dens, ouyang mei and scouts disguised as buyers to the head of the vending yellow designated trading sites...
---------------------------
















General
Complete name                  : G:\夜幕下的黄色幽灵.Porn Freak.1989.1080p.web-dl.mp4
Format                         : MPEG-4
Format profile                 : Base Media
Codec ID                       : isom (isom/iso2/avc1/mp41)
File size                      : 1.04 GiB
Duration                       : 1 h 39 min
Overall bit rate               : 1 493 kb/s
Writing application            : Lavf57.48.101

Video
ID                             : 1
Format                         : AVC
Format/Info                    : Advanced Video Codec
Format profile                 : High@L4
Format settings                : CABAC / 4 Ref Frames
Format settings, CABAC         : Yes
Format settings, ReFrames      : 4 frames
Codec ID                       : avc1
Codec ID/Info                  : Advanced Video Coding
Duration                       : 1 h 39 min
Bit rate                       : 1 361 kb/s
Width                          : 1 920 pixels
Height                         : 1 038 pixels
Display aspect ratio           : 1.85:1
Frame rate mode                : Variable
Frame rate                     : 25.000 FPS
Minimum frame rate             : 0.424 FPS
Maximum frame rate             : 25.000 FPS
Color space                    : YUV
Chroma subsampling             : 4:2:0
Bit depth                      : 8 bits
Scan type                      : Progressive
Bits/(Pixel*Frame)             : 0.027
Stream size                    : 972 MiB (91%)
Codec configuration box        : avcC

Audio
ID                             : 2
Format                         : AAC LC
Format/Info                    : Advanced Audio Codec Low Complexity
Codec ID                       : mp4a-40-2
Duration                       : 1 h 39 min
Bit rate mode                  : Constant
Bit rate                       : 125 kb/s
Channel(s)                     : 2 channels
Channel layout                 : L R
Sampling rate                  : 44.1 kHz
Frame rate                     : 43.066 FPS (1024 SPF)
Compression mode               : Lossy
Stream size                    : 89.7 MiB (8%)
Default                        : Yes
Alternate group                : 1
【下載地址】:
購買主題 已購買人數:1  記錄 本主題需向作者支付 12 金钻 才能瀏覽

谢谢欣赏国产片啊!辛苦!

TOP

TOP

TOP

TOP

TOP

我命由我

TOP

TOP

返回列表