免費論壇 繁體 | 簡體
Sclub交友聊天~加入聊天室當版主
分享
电影票购买请用支付宝:sjz416@163.com
返回列表 發帖

[百度][血嫁衣.Blood wedding.2016][MP4/WEB-DL/1080p/495M]

血嫁衣 (2016)
导演: 胡涛
主演: 刘嘉文 / 王红梅 / 周青
类型: 悬疑 / 惊悚 / 恐怖
制片国家/地区: 中国大陆
语言: 汉语普通话
上映日期: 2016-05-05(中国大陆)
片长: 68分钟
血嫁衣的剧情简介:
  民国中期,一座富贵人家的古宅接连发生关于血嫁衣凶杀案,探长温子夜介入调查,未曾预料此案竟是案中之案,且勾起温子夜内心深处的感情创伤,经温子夜深入细致调查,真相慢慢浮出水面,而温子夜内心的情感创伤借此也得以平复。
(Xue jia yi) Chinese Audio,Chinese subs
DUB:Mandarin
SUBS:Chinese subs
-------------
The middle of the republic of China, the old house of a rich, a murder occurred about blood products midnight investigation inspector temperature, unexpected turns out to be the case in the case of temperature and hook up inner emotional trauma, midnight midnight thorough investigation by temperature, the rose to the surface and inner emotional trauma to midnight and temperature also is able to repair.
--------------











===============
General
Complete name                  : G:\[血嫁衣].Blood wedding.2016.1080p.web-dl.mp4
Format                         : MPEG-4
Format profile                 : Base Media
Codec ID                       : isom (isom/iso2/avc1/mp41)
File size                      : 495 MiB
Duration                       : 1 h 8 min
Overall bit rate               : 1 009 kb/s
Writing application            : Lavf57.48.101

Video
ID                             : 1
Format                         : AVC
Format/Info                    : Advanced Video Codec
Format profile                 : High@L4
Format settings                : CABAC / 4 Ref Frames
Format settings, CABAC         : Yes
Format settings, ReFrames      : 4 frames
Codec ID                       : avc1
Codec ID/Info                  : Advanced Video Coding
Duration                       : 1 h 8 min
Bit rate                       : 879 kb/s
Width                          : 1 920 pixels
Height                         : 900 pixels
Display aspect ratio           : 2.133
Frame rate mode                : Variable
Frame rate                     : 24.892 FPS
Minimum frame rate             : 0.223 FPS
Maximum frame rate             : 25.000 FPS
Color space                    : YUV
Chroma subsampling             : 4:2:0
Bit depth                      : 8 bits
Scan type                      : Progressive
Bits/(Pixel*Frame)             : 0.020
Stream size                    : 431 MiB (87%)
Codec configuration box        : avcC

Audio
ID                             : 2
Format                         : AAC LC
Format/Info                    : Advanced Audio Codec Low Complexity
Codec ID                       : mp4a-40-2
Duration                       : 1 h 8 min
Bit rate mode                  : Constant
Bit rate                       : 123 kb/s
Channel(s)                     : 2 channels
Channel layout                 : L R
Sampling rate                  : 44.1 kHz
Frame rate                     : 43.066 FPS (1024 SPF)
Compression mode               : Lossy
Stream size                    : 60.5 MiB (12%)
Default                        : Yes
Alternate group                : 1
【下載地址】:
購買主題 已購買人數:0  記錄 本主題需向作者支付 7 金钻 才能瀏覽

返回列表