免費論壇 繁體 | 簡體
Sclub交友聊天~加入聊天室當版主
分享
电影票购买请用支付宝:sjz416@163.com
返回列表 發帖

[百度][血滴子秘史.The Assassings's Secret.1990][MP4/WEB-DL/1080p/2.36G]


血滴子秘史 (1990)
导演: 姚守岗
编剧: 贺子壮 / 李蓉
主演: 赵志刚 / 韩海华 / 王华
类型: 动作 / 武侠 / 古装
制片国家/地区: 中国大陆
语言: 汉语普通话
上映日期: 1990
片长: 98分钟
又名: The Assassings's Secret
血滴子秘史的剧情简介:
  清雍正年间。登基之初,雍正(叶志康 饰)用毒酒诛灭为帮其篡位的“血滴子”杀手团,赴宴的邱钟琪(王华 饰)看出酒中端倪,佯饮后转身吐于袖囗。雍正离席后,大内高手将中毒后一息尚存的杀手团成员逐一绞杀,邱钟琪索取一大内首级,绝尘而去。雍正遂将大功臣年羹尧(张毅然 饰)连降十八级,国舅隆科多禁锢畅春园,妻女发配黑龙江为奴。遭贬的年羹尧不知去向,邱钟琪也不知所踪。鄂尔泰(李殿芳 饰)建言雍正利诱年羹尧,以引邱钟琪露面。在雍正与鄂尔泰亲访天下第一剑李嗣庭(赵志刚 饰)途中,邱钟琪突然杀将出来,欲取雍正首级,不料,却被英姑(王美玲 饰)用暗器制止....
(Xue di zi mi shi) Chinese Audio
DUB:Mandarin
SUBS:no
------------------
Qing emperor yongzheng.Begin to be enthroned, yong zheng (ye zhikang is acted the role of) with poison wine accuser is put down to help its usurp the position "blood drops child" killer group, go to banquet qiu zhongqi (wang hua is acted the role of) see wine medium clue, pretend to drink hind turn round to spit at sleeve kou.Yongzheng leave, inside the master will be poisoned after the surviving killer group members one by one hanging, qiu zhongqi for a inside the head, dust-off.Yongzheng sui will be a great hero of the New Year's feast yao (zhang yilan ornaments) down to 18, the country's uncle longke more imprisoned chang chun yuan, his wife and daughter sent to heilongjiang as a slave.The banishment of the New Year's feast yao do not know whereabouts, qiu zhongqi also do not know a trace.Er tai (li dian-fang is acted the role of) establish speech yong zheng gain attracts year feast yao, in order to lead qiu zhongqi to make an appearance.In yongzheng and er taiqin visit the world's first sword li siting (zhao zhigang) on the way, qiu zhongqi suddenly killed out, to take yongzheng head, only to be British aunt (wang meiling) with a hidden weapon to stop...
-----------------




-------------------
General
Complete name                  : G:\[血滴子秘史].The Assassings's Secret.1990.1080p.web-dl.mp4
Format                         : MPEG-4
Format profile                 : Base Media
Codec ID                       : isom (isom/iso2/avc1/mp41)
File size                      : 2.37 GiB
Duration                       : 1 h 38 min
Overall bit rate               : 3 435 kb/s
Writing application            : Lavf57.48.101

Video
ID                             : 1
Format                         : AVC
Format/Info                    : Advanced Video Codec
Format profile                 : High@L4
Format settings                : CABAC / 4 Ref Frames
Format settings, CABAC         : Yes
Format settings, ReFrames      : 4 frames
Codec ID                       : avc1
Codec ID/Info                  : Advanced Video Coding
Duration                       : 1 h 38 min
Bit rate                       : 3 303 kb/s
Width                          : 1 920 pixels
Height                         : 1 080 pixels
Display aspect ratio           : 16:9
Frame rate mode                : Variable
Frame rate                     : 24.886 FPS
Minimum frame rate             : 0.105 FPS
Maximum frame rate             : 25.000 FPS
Color space                    : YUV
Chroma subsampling             : 4:2:0
Bit depth                      : 8 bits
Scan type                      : Progressive
Bits/(Pixel*Frame)             : 0.064
Stream size                    : 2.28 GiB (96%)
Codec configuration box        : avcC

Audio
ID                             : 2
Format                         : AAC LC
Format/Info                    : Advanced Audio Codec Low Complexity
Codec ID                       : mp4a-40-2
Duration                       : 1 h 38 min
Bit rate mode                  : Constant
Bit rate                       : 125 kb/s
Channel(s)                     : 2 channels
Channel layout                 : L R
Sampling rate                  : 44.1 kHz
Frame rate                     : 43.066 FPS (1024 SPF)
Compression mode               : Lossy
Stream size                    : 88.3 MiB (4%)
Default                        : Yes
Alternate group                : 1
If you don't learn Chinese, you will always lag behind!
[下載地址]:
購買主題 已購買人數:0  記錄 本主題需向作者支付 13 金钻 才能瀏覽

TOP

TOP

TOP

這個片子貌似沒有看過的

TOP

返回列表