免費論壇 繁體 | 簡體
Sclub交友聊天~加入聊天室當版主
分享
电影票购买请用支付宝:sjz416@163.com
返回列表 發帖

[百度][心灵解码.Mind Decoding.2016][MP4/WEB-DL/1080p/886M]

心灵解码 (2016)
导演: 于向远 / 丁颖安
编剧: 杨力勇 / 董文安 / 耿忠民
主演: 蒋方婷 / 文静 / 俞潇春 / 王谭 / 田源 / 杨映华 / 高伟中 / 李晓红
类型: 剧情 / 悬疑 / 惊悚
制片国家/地区: 中国大陆
语言: 汉语普通话
上映日期: 2016-10-01(中国大陆)
片长: 98分钟
又名: Mind Decoding
IMDb链接: tt6448718
心灵解码的剧情简介:
  H省精神病院地处荒野,因袭医事件频发,那里等级森严,监控严密。酷热清晨,病人郭佳离奇地将护士长夏雪劫持,声称最爱她的男人在门口等她。而据档案记载这个男人已经死亡多年。不久,患有严重暴力倾向的陈默入住,将每个医患心中潜藏在阴暗处的邪恶与恐惧激发。随着假冒病人程小絮的住院 ,一段尘封的夺权阴谋、杀戮迷局将孤立事件勾连,秩序崩溃,死地复燃,疯狂一触即发……
(Xin ling jie ma) Chinese Audio;Eng subs
DUB:Mandarin
SUBS:Chinese Subs;Eng subs
---------------
The psychiatric hospital in H province, located in the wilderness, is highly hierarchical and closely monitored.Very hot early morning, patient guo jia holds head nurse xia xue hostage mysteriously, the man that claims to love her most waits for her in the doorway.Records show that the man died years ago.Before long, the Chen mo that suffers from serious violent tendency is checked in, the evil that hides in every doctor and patient heart and dread inspire.As fake patient cheng xiaoxu is in hospital, the plot of a paragraph of dusty seize power, kill confuse bureau to connect isolated incident, order breaks down, deathtrap rekindling, madness is triggered at any moment...














=======================
General
Complete name                  : G:\心灵解码. Mind Decoding.2016.1080p.web-dl.mp4
Format                         : MPEG-4
Format profile                 : Base Media
Codec ID                       : isom (isom/iso2/avc1/mp41)
File size                      : 887 MiB
Duration                       : 1 h 43 min
Overall bit rate               : 1 204 kb/s
Writing application            : Lavf57.48.101

Video
ID                             : 1
Format                         : AVC
Format/Info                    : Advanced Video Codec
Format profile                 : High@L4
Format settings                : CABAC / 4 Ref Frames
Format settings, CABAC         : Yes
Format settings, ReFrames      : 4 frames
Codec ID                       : avc1
Codec ID/Info                  : Advanced Video Coding
Duration                       : 1 h 43 min
Bit rate                       : 1 072 kb/s
Width                          : 1 920 pixels
Height                         : 806 pixels
Display aspect ratio           : 2.40:1
Frame rate mode                : Variable
Frame rate                     : 25.000 FPS
Minimum frame rate             : 3.125 FPS
Maximum frame rate             : 25.000 FPS
Color space                    : YUV
Chroma subsampling             : 4:2:0
Bit depth                      : 8 bits
Scan type                      : Progressive
Bits/(Pixel*Frame)             : 0.028
Stream size                    : 789 MiB (89%)
Color range                    : Limited
Color primaries                : BT.709
Transfer characteristics       : BT.709
Matrix coefficients            : BT.709
Codec configuration box        : avcC

Audio
ID                             : 2
Format                         : AAC LC
Format/Info                    : Advanced Audio Codec Low Complexity
Codec ID                       : mp4a-40-2
Duration                       : 1 h 43 min
Bit rate mode                  : Constant
Bit rate                       : 126 kb/s
Channel(s)                     : 2 channels
Channel layout                 : L R
Sampling rate                  : 44.1 kHz
Frame rate                     : 43.066 FPS (1024 SPF)
Compression mode               : Lossy
Stream size                    : 92.5 MiB (10%)
Default                        : Yes
Alternate group                : 1
【下载地址】:
購買主題 已購買人數:0  記錄 本主題需向作者支付 12 金钻 才能瀏覽

返回列表