免費論壇 繁體 | 簡體
Sclub交友聊天~加入聊天室當版主
分享
电影票购买请用支付宝:sjz416@163.com
返回列表 發帖

[百度][影. Shadow.2018][MP4/WEB-DL/1080p/1.99G]

影 (2018)
导演: 张艺谋
编剧: 李威 / 张艺谋
主演: 邓超 / 孙俪 / 郑恺 / 王千源 / 王景春 / 胡军 / 关晓彤 / 吴磊 / 封柏
类型: 剧情 / 动作 / 武侠 / 古装
制片国家/地区: 中国大陆 / 香港
语言: 汉语普通话
上映日期: 2018-09-30(中国大陆) / 2018-09-06(威尼斯电影节)
片长: 116分钟
又名: 三国·荆州 / 荆州保卫战 / Shadow
IMDb链接: tt6864046
影的剧情简介:
  纷乱时局,群敌环伺。一个从小被秘密囚禁的替身,不甘只做他人手中的武器;但若想冲破枷锁,找回自我,又必将历经千难万险的考验;替身能否寻回自由,他又该如何选择?










General
Complete name                  : G:\ying.1080p.HD国语中字无水印.mp4
Format                         : MPEG-4
Format profile                 : Base Media
Codec ID                       : isom (isom/iso2/avc1/mp41)
File size                      : 1.99 GiB
Duration                       : 1 h 55 min
Overall bit rate               : 2 461 kb/s
Writing application            : Lavf57.83.100

Video
ID                             : 1
Format                         : AVC
Format/Info                    : Advanced Video Codec
Format profile                 : High@L4
Format settings                : CABAC / 3 Ref Frames
Format settings, CABAC         : Yes
Format settings, ReFrames      : 3 frames
Codec ID                       : avc1
Codec ID/Info                  : Advanced Video Coding
Duration                       : 1 h 55 min
Bit rate                       : 2 263 kb/s
Width                          : 1 920 pixels
Height                         : 792 pixels
Display aspect ratio           : 2.40:1
Frame rate mode                : Constant
Frame rate                     : 25.000 FPS
Color space                    : YUV
Chroma subsampling             : 4:2:0
Bit depth                      : 8 bits
Scan type                      : Progressive
Bits/(Pixel*Frame)             : 0.060
Stream size                    : 1.83 GiB (92%)
Color range                    : Limited
Color primaries                : BT.709
Transfer characteristics       : BT.709
Matrix coefficients            : BT.709
Codec configuration box        : avcC

Audio
ID                             : 2
Format                         : AAC LC
Format/Info                    : Advanced Audio Codec Low Complexity
Codec ID                       : mp4a-40-2
Duration                       : 1 h 55 min
Bit rate mode                  : Constant
Bit rate                       : 192 kb/s
Channel(s)                     : 2 channels
Channel layout                 : L R
Sampling rate                  : 44.1 kHz
Frame rate                     : 43.066 FPS (1024 SPF)
Compression mode               : Lossy
Stream size                    : 157 MiB (8%)
Default                        : Yes
Alternate group                : 1
【下载地址】:
購買主題 已購買人數:0  記錄 本主題需向作者支付 16 金钻 才能瀏覽

返回列表